Muriels Wedding 1994 DVDRip XviD-TAR[PRiME] Torrent Download

seeders: 302
leechers: 165
updated:
Added ago by showstopper ***** in Movies
Torrent Downloaded 35 times.
Info Hash: 4FFEFF4A82A68DB2A96A93A2439EE7761998CA75

Download Fast Safe Anonymous
movies, software, shows...

Torrent Files

Muriels Wedding 1994 DVDRip XviD-TAR[PRiME] (Size: 979.4 MB)
  Muriels Wedding 1994 DVDRip XviD-TAR[PRiME] 979.4 MB

Torrent Description




Muriels.Wedding.1994.DVDRip.XviD-TAR[PRiME]

ImDb: http://www.imdb.com/title/tt0110598



Complete name : Muriels.Wedding.1994.DVDRip.XviD-TAR[PRiME].avi
Format : AVI
Format/Info : Audio Video Interleave
File size : 979 MiB
Duration : 1 h 40 min
Overall bit rate : 1 360 kb/s

Video
ID : 0
Format : MPEG-4 Visual
Format profile : Advanced [email protected]
Format settings, BVOP : 2
Format settings, QPel : No
Format settings, GMC : No warppoints
Format settings, Matrix : Default (H.263)
Codec ID : XVID
Codec ID/Hint : XviD
Duration : 1 h 40 min
Bit rate : 1 226 kb/s
Width : 624 pixels
Height : 352 pixels
Display aspect ratio : 16:9
Frame rate : 25.000 FPS
Color space : YUV
Chroma subsampling : 4:2:0
Bit depth : 8 bits
Scan type : Interlaced
Scan order : Bottom Field First
Compression mode : Lossy
Bits/(Pixel*Frame) : 0.223
Stream size : 883 MiB (90%)
Writing library : XviD 67

Audio
ID : 1
Format : MPEG Audio
Format version : Version 1
Format profile : Layer 3
Mode : Joint stereo
Codec ID : 55
Codec ID/Hint : MP3
Duration : 1 h 40 min
Bit rate mode : Constant
Bit rate : 128 kb/s
Channel(s) : 2 channels
Sampling rate : 48.0 kHz
Compression mode : Lossy
Stream size : 92.2 MiB (9%)
Alignment : Aligned on interleaves
Interleave, duration : 160 ms (4.00 video frames)
Interleave, preload duration : 216 ms
Title : VTS_07_1 T80 3_2ch 448Kbps DELAY 0ms
Writing library : LAME3.99r
Encoding settings : -m j -V 4 -q 2 -lowpass 17 -b 128




Click Image To View Full Size


Click To View Screenshot
Click To View Screenshot
Click To View Screenshot



Related Torrents

torrent name size age seed leech
890.4 MB 10 minutes 518 251
1.9 GB 10 minutes 199 35
16.0 GB 10 minutes 83 307
11.95 MB 12 minutes 219 179
17.08 MB 12 minutes 276 174

Sharing Widget


Download torrent
979.4 MB
seeders:1214
leechers:386
Muriels Wedding 1994 DVDRip XviD-TAR[PRiME]



To share this torrent use the code below and insert it into comments, status messages, forum posts or your signature.

Torrent: Muriels Wedding 1994 DVDRip XviD-TAR[PRiME]

Comments

Latest Searches